WK綜合論壇, WK综合论坛

查看:392589 回復:33 發表於 2016-10-15 09:03:03
累計簽到:2127 天
連續簽到:1 天
發表於 2016-10-12 18:58:49 | 顯示全部樓層 |閱讀模式
VIP精品區,資源無限好賺金任務區,輕松賺金幣
加入VIP,享受高級特權宣傳賺金又升級,超級棒

神奇隊長 Captain.Fantastic, 2016.[MKV / 3.48GB]   [複製鏈接]

影視分享
分類: 電影
題材: 愛情 劇情 喜劇 
地區: 美國 
語言: 英语 
格式: MKV 
年份: 2016
資源: BT资源

! b% w1 q' R! K+ Z1 T! \, y
/ ~1 @/ H: T- A' ^% p7 S◎译  名 神奇队长$ |, f& i" W5 n3 f6 A# _
◎片  名 Captain Fantastic
7 u# S* D! v% c+ b9 i1 o! \◎年  代 2016" ?8 C- k$ ]# e
◎国  家 美国
, d' o9 t7 b" G+ z, _0 D- ^◎类  别 剧情/喜剧/爱情
& R2 ~0 V. p6 H1 i1 Z! L! U◎语  言 英语
5 a" j5 k7 `5 r: m) r  r◎上映日期 2016-01-23(圣丹斯电影节)/2016-07-08(美国)
" H, d9 g/ t3 m  J( F  }# T8 p7 f◎IMDb评分  8.1/10 from 9,480 users
+ z  Z) b- q- ]9 c: h6 _◎IMDb链接  http://www.imdb.com/title/tt3553976/' S' j* k4 K1 t3 {# F
◎豆瓣评分 7.9/10 from 243 users
5 N- y8 R( ~% M' S◎豆瓣链接 https://movie.douban.com/subject/25834735/
0 \  @( w7 W1 D* V/ W+ W  f1 V◎片  长 118分钟( o9 k- A3 S' S# K; _8 `" y
◎导  演 马特·罗斯 Matt Ross0 U& i( D, O$ g4 B' N- E
◎主  演 维果·莫腾森 / 乔治·麦凯 / 安娜丽丝·巴索 / 弗兰克·兰格拉 / 史蒂夫·茨恩 / 凯瑟琳·哈恩 / 米西·派勒 / 艾琳·莫里亚蒂 / 萨曼莎·伊斯莱尔  j# v2 }4 \0 Z: e% T3 A
◎简  介( d$ J" T$ e$ j$ B1 K4 M  e
  在太平洋西北部的森林深处,与世隔绝,一位慈爱的父亲全心全意地试图将自己六个年幼的孩子培养成出色的成年人。但当灾难降临,他们被迫离开了自己创建的天堂,开始走向外面的世界。这不仅挑战了他对“家长“这个角色的理解,也让孩子们开始怀疑父亲所教给他们的一切。& c! o6 f% V& S- k/ c
Video
; U* i* h5 h5 K) Z7 T: h% jID                                       : 1
" c3 j' q) S/ gFormat                                   : AVC
. K/ Q4 ~) A2 n0 Y8 WFormat/Info                              : Advanced VideoCodec
) v* Z, M- ^5 J, o1 Z  W- m7 tFormat profile                           : [email protected]8 E% r/ }3 D9 `% Q$ V
Format settings, CABAC                   : Yes% M' G3 t; g0 ?) ]- j5 y% i
Format settings, ReFrames                : 5 frames! S4 }* c2 w6 l- b7 s" ]/ P; W
Codec ID                                 :V_MPEG4/ISO/AVC
* z: p( v) a2 _  W* Z- C0 v9 ]Duration                                 : 1h 59mn
. e' ~9 I" b0 ~2 ]% P6 q: ~8 ]Bit rate                                 : 4 424 Kbps- O* {& B$ k9 D' F( ~
Width                                    : 1 916 pixels
8 z8 M% E0 w7 \" tHeight                                   : 792 pixels  {* _2 X8 j% J8 p$ G! K, P. H
Display aspect ratio                     : 2.40:14 V* k5 h5 N- h7 C- S) C  m8 a
Frame rate mode                          : Constant
! v# S9 s# ?- |/ X4 AFrame rate                               : 23.976 fps
8 ~  C% X2 o  z0 F3 ^8 p3 D4 c* p7 sColor space                              : YUV- q, Z6 s- P/ v% ~1 A4 F2 U
Chroma subsampling                       : 4:2:0' B6 o( }) L. H5 f
Bit depth                                : 8 bits
/ }+ {, h4 {% s3 r" ^( {7 e9 ?Scan type                                : Progressive9 t" G2 n/ _9 m" I6 G* ]( ]- F
Bits/(Pixel*Frame)                       : 0.122
: d& U9 F, f  ~Stream size                              : 3.69 GiB (90%)6 u1 ~4 ^% D: ]) h
Title                                    :Captain.Fantastic.2016.1080p.WEB-DL.DD5.1.H264-FGT0 H$ @3 f6 J0 Z$ C) Z
Language                                 : English
7 |3 c5 q  T# f) G; |% ~1 ~$ fDefault                                  : Yes  R; [' U6 f( m, h
Forced                                   : No
. \2 o- W! p0 NColor range                              : Limited6 z/ e. q, @/ l+ V6 L3 N
Color primaries                          : BT.709
4 x* }8 Z. F9 C$ _Transfer characteristics                 : BT.709
+ V" b  a$ U! s( Q% T& R5 nMatrix coefficients                      : BT.709
; h: u/ G/ h, o) OAudio
5 G8 U! R; ?; `' V8 OID                                       : 2! `" o. Q: a$ d3 ~/ t5 J) {
Format                                   : AC-3
9 t8 a5 ]' G- {  `" BFormat/Info                              : Audio Coding 32 [: |0 `; \: p7 `# B
Mode extension                           : CM (complete main)
+ q, k% e3 J, h- LFormat settings, Endianness              : Big8 g- [  c7 z2 m6 z8 s7 J+ [
Codec ID                                 : A_AC3
3 X$ k" x+ i1 |7 |Duration                                 : 1h 59mn
3 X4 ?7 P( f' J( R* m/ tBit rate mode                            : Constant1 r, j0 f( a, h0 q
Bit rate                                 : 384 Kbps; o/ v# ]% ~8 }8 I
Channel(s)                               : 6 channels- J5 h+ m6 G1 _# I% a: J
Channel positions                        : Front: L C R, Side: LR, LFE! U" g+ w5 q5 J
Sampling rate                            : 48.0 KHz4 q- l( Q4 Z: d  b. `2 A# M
Frame rate                               : 31.250 fps(1536 spf)
0 F. T+ H$ z+ ^* O. u  @2 n5 NCompression mode                         : Lossy
, ?5 x1 T  k( _7 N  WStream size                              : 328 MiB (8%)
0 e, ?2 l" B5 m) U. X5 g  PTitle                                    :Captain.Fantastic.2016.1080p.WEB-DL.DD5.1.H264-FGT, x4 H$ a6 }) n3 a! Y
Language                                 : English
* l' x$ c" v# f$ p' `Default                                  : Yes  U1 z3 _& B# p$ t
Forced                                   : No) H% V* e% O! J# E4 w
Text; A7 h$ _+ @  L' z
ID                                       : 3
) V; s* @7 {- IFormat                                   : UTF-87 v/ m* o- t# n
Codec ID                                 : S_TEXT/UTF8
( ^0 a; U' `1 ]. z) ~& q" a" N/ L0 vCodec ID/Info                            : UTF-8 Plain Text% a: x% P4 h+ a; p8 i- n
Language                                 : English
. \5 {& k' [8 I$ O% [Default                                  : Yes: v& X3 D( N- b% T5 Z
Forced                                   : No
) i4 N- O: f; wMenu
" X+ l$ {) s9 H* W; g, {00:00:00.000                             : en:1
4 D/ ]1 q5 D& K00:05:15.000                             : en:2
. q7 U# G* f/ u9 [& u  L0 @8 I00:11:13.000                             : en:3
, B# r6 X/ Q2 X* e( ~( `, A, s! l00:17:35.000                             : en:4
! O0 j$ B( j% U" B9 G/ M00:25:21.000                             : en:5* P% `0 M, e$ i2 q+ {3 L' a
00:31:38.000                             : en:6( K# P& [1 l, T; O: j6 H0 I, E
00:37:42.000                             : en:7
" b( H7 m; F$ G# T00:40:26.000                             : en:8
3 y  t4 }& b+ p/ A8 \% H00:46:11.000                             : en:9
& D* W1 o0 i: }9 M( e5 B9 K00:54:04.000                             : en:10
9 x# }9 q! a& A+ Q00:59:35.000                             : en:11
: S& C5 M% e+ K) l01:08:22.000                             : en:127 J0 U/ `; b) w. \+ r, u
01:14:09.000                             : en:138 M" d4 d8 n' ^, B
01:20:19.000                             : en:146 z6 Y( T  M. D" m
01:24:31.000                             : en:15( k# I' F1 H/ J. z) ?7 W1 T
01:30:20.000                             : en:16
7 S3 u2 U$ m; R, b6 `9 \01:36:53.000                             : en:17% e2 _; Q0 M8 y5 v( m0 V
01:43:04.000                             : en:183 x2 o" v; H+ m! t5 O& u% Y# J
01:48:24.000                             : en:19
, B% ]8 p  {3 J# v) I" q01:52:48.000                             : en:20

" P# r2 `6 ~2 h, m9 c: g
# r  A( n# L- i* x! a: c6 t( Z3 u 神奇隊長. MKV.torrent (70.13 KB, 下載次數: 8391)

尚未簽到

發表於 2016-10-12 18:59:49 | 顯示全部樓層
VIP精品區,資源無限好賺金任務區,輕松賺金幣
加入VIP,享受高級特權宣傳賺金又升級,超級棒
精妙絕倫的精品,感謝啊!期待你更多更好的創作哦!

尚未簽到

發表於 2016-10-13 06:15:20 | 顯示全部樓層
偶像^^小生一直都在關注你的原創!小生對你之仰慕如滔滔江水連綿不絕!

尚未簽到

發表於 2016-10-13 12:49:08 | 顯示全部樓層
精妙絕倫的精品,感謝啊!期待你更多更好的創作哦!

尚未簽到

發表於 2016-10-14 01:03:40 來自手機 | 顯示全部樓層
偶像^^小生一直都在關注你的原創!小生對你之仰慕如滔滔江水連綿不絕!

尚未簽到

發表於 2016-10-14 14:24:59 | 顯示全部樓層
精妙絕倫的精品,感謝啊!期待你更多更好的創作哦!

尚未簽到

發表於 2016-10-14 16:18:19 | 顯示全部樓層
偶像^^小生一直都在關注你的原創!小生對你之仰慕如滔滔江水連綿不絕!

尚未簽到

發表於 2016-10-14 19:15:03 | 顯示全部樓層
精妙絕倫的精品,感謝啊!期待你更多更好的創作哦!

尚未簽到

發表於 2016-10-14 23:25:21 | 顯示全部樓層
偶像^^小生一直都在關注你的原創!小生對你之仰慕如滔滔江水連綿不絕!
累計簽到:1 天
連續簽到:1 天
發表於 2016-10-15 09:03:03 | 顯示全部樓層
精妙絕倫的精品,感謝啊!期待你更多更好的創作哦!

回復樓主 親!! 現在是後半夜!妳失眠啦?餓啦?通宵加班?還是想WK啦?

 分享同時學會感恩,一句感謝的話語,就是最大的支持!  歡迎交流討論
您需要登錄後才可以回帖 登錄 | 立即注册

本版積分規則

c重要聲明:本論壇是以即時上載言論的方式運作,WK論壇對所有言論的真實性、立場及版權等,不負任何法律責任。而一切言論只代表發佈者個人意見,並非本網站之立場,讀者及用戶務必自行判斷內容之真實性。 由於本論壇受到「即時上載言論」運作方式所規限,故不能完全監察所有言論,若讀者及用戶發現有內容出現「真實性、立場及版權」等問題,請聯絡我們:[email protected]論壇有權刪除任何言論(刪除前或不會作事先警告及通知)| SiteMap[網站地圖]

發表新帖 返回頂部