WK綜合論壇, WK综合论坛

查看:195 回復:1 發表於 2021-4-9 09:19:06
本主題由 212love 於 2021-4-11 22:30 解除高亮
累計簽到:2126 天
連續簽到:2 天
發表於 2021-4-7 13:13:10 | 顯示全部樓層 |閱讀模式
VIP精品區,資源無限好賺金任務區,輕松賺金幣
加入VIP,享受高級特權宣傳賺金又升級,超級棒

無處可避 Rose., 2020.[MKV / 3.97G] 1080p [複製鏈接]

影視分享
分類: 電影
題材: 恐怖 
地區: 英國 
語言: 英语 
格式: MKV 
年份: 2020
資源: BT资源
1.jpg
2 O- t0 C$ Z  {) B2 z2 \
& G! e# g* ?/ T3 c1 e% c  N◎译  名 无处可避/Rose: A Love Story
( }4 O/ I: Z" l- {◎片  名 Rose
; g7 a8 V3 Z! v' o◎年  代 20200 d+ V7 h+ }! \* S  m
◎产  地 英国0 Y4 l& p! x3 t8 R
◎类  别 恐怖
- X" |0 h% I8 Q: R3 a7 {◎语  言 英语# o: \6 q+ M$ S' a! u
◎上映日期 2020-10-13(英国)
( T0 d& D3 j( {3 f◎IMDb评分 7.2/10 from 60 users% ?$ |: P* A0 o' t8 ?
◎IMDb链接 https://www.imdb.com/title/tt9643228/
. C4 K" T! G1 Z/ `9 a( G7 S; d◎豆瓣评分 /10 from 0 users  X3 ]% I* F* n
◎豆瓣链接 https://movie.douban.com/subject/34607685/
6 f6 U4 g) k1 i◎片  长 86分钟, c/ Q: ?! X( x, p; e* t
◎编  剧 马特·斯托克 Matt Stokoe' [- ^  u" p1 w: o' ~" h
◎主  演 苏菲·兰朵 Sophie Rundle  h0 m: [, J/ [3 ~9 Z5 ?
      内森·麦克伦 Nathan McMullen) y5 g( B) i- [
      马特·斯托克 Matt Stokoe. g9 D# @9 a1 ~9 d) m9 G
      奥利维亚·格兰特 Olivia Grant# w6 ]; g* O) B$ _% G2 L% M
# z; d6 a4 e- I9 K! u
◎标  签 英国电影 | 苏菲兰格 | 恐怖- k) U2 ~7 F% U/ J6 ~

5 S9 P6 ]. R( D( ?. s◎简  介
4 D. R8 B! c' T& d+ T8 r- }0 F5 u# q+ T  U$ E7 I& z7 ]1 b1 A
  Gripped by a violent, terrifying illness, Rose lives in seclusion with her husband, but the arrival of a stranger shatters the fragile refuge they have built.8 u. g- y, S& h) [; \+ w0 G

. n4 I0 I! H5 k6 F5 {- c& K◎获奖情况
6 w% [  e9 Y4 z' S  j" W! t
: R# K1 |( e; O2 s8 @, [  第23届英国独立电影奖 ?(2020)! U( f. X, w5 \  e5 x# f
  瑞丹斯奖(提名)
6 P$ \) }+ r% n, {Video
1 a; a% a* ^- [& p6 G. H+ qID : 1! `0 h0 c% @! {# e
Format : AVC
9 F$ ]) d  u+ xFormat/Info : Advanced Video Codec
8 U+ R! f' Y9 t* [( }% {/ q  tFormat profile : [email protected]
; t" M2 y. a# e2 JFormat settings : CABAC / 4 Ref Frames/ v; u$ C% W8 {2 ^' t
Format settings, CABAC : Yes  _# s. q! e, i
Format settings, Reference frames : 4 frames! i: ^3 t6 H3 g7 I5 `6 |; Z, h
Codec ID : V_MPEG4/ISO/AVC- }9 H$ v  d6 T9 i% P
Duration : 1 h 26 min
. |: Y2 A7 P* s! g, H* GBit rate mode : Constant
% P+ G# a+ j3 X0 G# h# [Bit rate : 5 926 kb/s
* h( H7 G& u" E1 e- U, [# Z9 m- ENominal bit rate : 10 000 kb/s0 C, y) e6 e3 o8 p2 X
Width : 1 920 pixels, t2 J. [8 G9 h4 z' n) \8 f( t7 Q
Height : 1 080 pixels; |9 g: \2 q/ y+ f
Display aspect ratio : 16:96 A3 q" t4 a7 b4 b; U
Frame rate mode : Constant7 b* g* S) [2 A
Frame rate : 24.000 FPS
+ U; f4 T+ y& R! z* d+ |, G- [; |Color space : YUV
( k, \. s3 j9 G5 bChroma subsampling : 4:2:0* R. x. B! m. d2 S
Bit depth : 8 bits
' B2 H2 `$ T4 A, dScan type : Progressive
0 v  D* M0 V+ t) g% R9 C, u" xBits/(Pixel*Frame) : 0.1197 U/ I' ?0 E+ j6 j) a2 H+ B2 y. t
Stream size : 3.58 GiB (90%). {% O3 j0 H3 K
Default : Yes
  l& O4 D7 K  o/ ]5 a' |Forced : No
' ~" c2 G8 f. j( a( N7 X9 Z* a) AColor range : Limited4 z: }  R% Z' I+ I* |1 b. j4 [& C
Color primaries : BT.709: t4 }& R6 U' Q8 _
Transfer characteristics : BT.709
: y# i, l3 o- Y% c. jMatrix coefficients : BT.709
- J8 O+ }1 v6 i& o, z8 ]4 h" x) r; S% d4 d8 g* l
Audio7 z6 v: A) L5 q6 e$ `) L  I
ID : 2
% R1 K, G+ S0 XFormat : E-AC-38 d) [* W7 ~5 ^" ]! ^1 w9 T
Format/Info : Enhanced AC-3, |; i5 F& t) x) k/ ^' n' U% Z- s
Commercial name : Dolby Digital Plus4 a6 m1 K* ?9 Q( M. H
Codec ID : A_EAC3* r1 H5 T6 t+ S/ d6 V5 |
Duration : 1 h 26 min
7 U( x" A8 A% x5 b$ HBit rate mode : Constant
$ g4 D* _4 S* R. |  ^9 hBit rate : 640 kb/s
* o$ W. @9 S% [! ~. V( nChannel(s) : 6 channels% C3 J! g3 \/ ^! F
Channel layout : L R C LFE Ls Rs0 W9 n& t+ p+ J1 G2 g# L2 ?# N7 S
Sampling rate : 48.0 kHz9 M5 q. M! O  v1 \' x
Frame rate : 31.250 FPS (1536 SPF)2 I. C. C$ A! v8 t1 g( e7 H. p7 O; |
Compression mode : Lossy8 v5 P4 _7 F' }5 h- l# v
Stream size : 396 MiB (10%)$ w( ?' G* n$ S
Language : English
& x$ m3 s- Q4 s+ p9 P# [5 GService kind : Complete Main
. ?6 e' J! r' z5 r  D9 t5 sDefault : Yes8 y* w+ z8 Z/ _0 M! x
Forced : No
' [5 V" X. r) ~7 W" V% l9 h

! m4 X1 Y  r* }0 z6 s

無處可避 MKV.torrent

40.18 KB, 下載次數: 29

本帖點贊的會員︰

累計簽到:1036 天
連續簽到:134 天
發表於 2021-4-9 09:19:06 | 顯示全部樓層
VIP精品區,資源無限好賺金任務區,輕松賺金幣
加入VIP,享受高級特權宣傳賺金又升級,超級棒
辛苦了版主,謝謝您無私分享

回復樓主 親!! 現在是淩晨!妳失眠啦?餓啦?通宵加班?還是想WK啦?

 分享同時學會感恩,一句感謝的話語,就是最大的支持!  歡迎交流討論
您需要登錄後才可以回帖 登錄 | 立即注册

本版積分規則

c重要聲明:本論壇是以即時上載言論的方式運作,WK論壇對所有言論的真實性、立場及版權等,不負任何法律責任。而一切言論只代表發佈者個人意見,並非本網站之立場,讀者及用戶務必自行判斷內容之真實性。 由於本論壇受到「即時上載言論」運作方式所規限,故不能完全監察所有言論,若讀者及用戶發現有內容出現「真實性、立場及版權」等問題,請聯絡我們:[email protected]論壇有權刪除任何言論(刪除前或不會作事先警告及通知)| SiteMap[網站地圖]

發表新帖 返回頂部